<?xml version="1.0" standalone="no"?>
<!DOCTYPE svg PUBLIC "-//W3C//DTD SVG 1.1//EN" "http://www.w3.org/Graphics/SVG/1.1/DTD/svg11.dtd">
<svg xmlns="http://www.w3.org/2000/svg">
<defs >
<font id="Jost" horiz-adv-x="531" ><font-face
    font-family="Jost"
    units-per-em="1000"
    panose-1="0 0 0 0 0 0 0 0 0 0"
    ascent="1070"
    descent="-375"
    alphabetic="0" />
<glyph unicode=" " horiz-adv-x="301" />
<glyph unicode="!" horiz-adv-x="333" d="M167 700L118 231H241L351 700H167ZM57 62Q57 24 84 0T151 -24Q193 -24 219 0T246 62Q246 100 220 124T151 148Q111 148 84 124T57 62Z" />
<glyph unicode="&quot;" horiz-adv-x="503" d="M191 700L100 382H199L352 700H191ZM396 700L304 382H404L556 700H396Z" />
<glyph unicode="#" horiz-adv-x="647" d="M117 413L259 412L286 418H484L511 412H658L679 533H136L117 413ZM35 172H578L599 293H472L442 287H219L189 293H56L35 172ZM549 700L463 487L457 456L373 250L357 224L265 0H397L682 700H549ZM316 700L32 0H162L255 226L259
251L343 456L361 488L448 700H316Z" />
<glyph unicode="$" horiz-adv-x="603" d="M362 818L340 637H450L485 818H362ZM253 62L219 -112H340L362 62H253ZM497 490L630 561Q611 604 581 637T506 691T399 710Q335 710 277 686T181 620T134 522Q127 464 149 421T210 349T288 303Q319 290 348 276T395 243T408
195Q405 173 392 158T358 134T311 126Q274 126 248 142T203 186T167 251L40 169Q60 119 96 79T183 15T294 -10Q369 -10 430 13T533 83T583 196Q590 251 573 292T520 364T439 413Q415 423 390 432T343 453T311 481T304 521Q307 540 319 554T351 577T393 586Q420
586 439 573T472 538T497 490Z" />
<glyph unicode="%" horiz-adv-x="892" d="M85 535Q78 487 96 445T153 377T243 351Q296 351 341 376T417 443T455 534Q462 583 444 625T387 693T296 719Q244 719 199 694T123 627T85 535ZM207 534Q209 550 220 565T247 591T281 601Q301 601 312 591T329 566T333
536Q331 519 320 504T293 479T259 469Q240 469 228 479T210 504T207 534ZM503 167Q496 118 514 76T571 8T661 -18Q714 -18 759 7T835 74T872 166Q879 215 861 257T805 325T715 351Q662 351 617 326T541 259T503 167ZM625 166Q628 184 639 199T667 223T701 233Q718
232 730 223T747 198T751 167Q748 149 737 134T710 109T675 101Q658 101 646 110T629 135T625 166ZM720 700L80 0H237L879 700H720Z" />
<glyph unicode="&amp;" horiz-adv-x="730" d="M259 372L531 0H694L397 400Q379 425 362 447T335 490T330 534Q333 551 343 565T369 588T405 597Q424 597 437 588T455 564T459 535Q456 511 436 491T387 453T326 420Q299 407 264 394T194 363T129 322T77 266T50
188Q41 127 69 82T148 13T261 -13Q334 -13 399 11T520 76T625 165T713 262L621 340Q590 301 553 260T474 186T386 133T293 115Q264 116 244 127T214 158T207 201Q212 232 232 252T282 288T343 316T400 344Q450 373 492 402T562 465T596 548Q603 594 582 632T520
694T421 717Q362 717 311 694T228 632T188 545Q184 511 194 482T222 425T259 372Z" />
<glyph unicode="&apos;" horiz-adv-x="298" d="M191 700L100 382H199L352 700H191Z" />
<glyph unicode="(" horiz-adv-x="331" d="M284 780Q210 669 162 545T93 290Q75 166 85 42T138 -200H271Q236 -82 229 42T240 290Q261 421 308 543T420 779L284 780Z" />
<glyph unicode=")" horiz-adv-x="331" d="M103 -199Q177 -88 225 36T294 290Q312 414 301 538T248 781H115Q151 663 158 538T147 290Q126 160 79 38T-34 -199H103Z" />
<glyph unicode="*" horiz-adv-x="575" d="M557 603L333 501L345 429L579 471L557 603ZM504 314L369 486L307 446L381 233L504 314ZM224 235L366 441L311 486L125 319L224 235ZM103 473L325 430L358 498L164 602L103 473ZM311 700L304 465L377 466L450 700H311Z" />
<glyph unicode="+" horiz-adv-x="654" d="M69 197L599 196L624 342H93L69 197ZM315 540L223 -2H376L470 540H315Z" />
<glyph unicode="," horiz-adv-x="314" d="M106 109L-24 -147L89 -171L253 76L106 109Z" />
<glyph unicode="-" horiz-adv-x="216" d="M6 172H215L238 303H29L6 172Z" />
<glyph unicode="." horiz-adv-x="313" d="M50 68Q50 30 77 3T144 -24Q186 -24 212 3T238 68Q238 106 212 133T144 160Q104 160 77 133T50 68Z" />
<glyph unicode="/" horiz-adv-x="590" d="M524 700L-40 -149H112L672 700H524Z" />
<glyph unicode="0" horiz-adv-x="642" d="M231 350Q237 390 250 429T285 499T334 549T396 568Q423 567 440 554T466 518T479 467T481 409T477 350Q472 310 458 272T423 201T374 151T312 133Q285 134 268 147T242 183T229 233T227 291T231 350ZM70 350Q64 294 67
241T86 142T130 62T199 7T297 -13Q368 -13 426 15T528 94T600 209T638 350Q645 406 642 460T624 559T580 639T511 693T411 713Q342 713 284 685T182 607T110 491T70 350Z" />
<glyph unicode="1" horiz-adv-x="494" d="M121 497L298 539L206 0H366L489 715L148 646L121 497Z" />
<glyph unicode="2" horiz-adv-x="637" d="M0 0H580L604 155L334 156L514 301Q561 338 596 386T639 492Q648 550 621 601T539 683T410 714Q323 715 259 678T156 578T103 442H266Q274 475 290 504T331 551T391 569Q419 569 437 556T462 523T466 481Q462 451 445
425T404 374T352 323L0 0Z" />
<glyph unicode="3" horiz-adv-x="602" d="M302 340Q357 341 410 350T508 380T581 435T619 519Q627 577 601 620T523 689T403 713Q332 713 276 685T183 607T135 496L288 495Q295 518 309 537T344 567T391 578Q414 578 429 569T450 544T454 509Q451 481 429 461T377
429T312 415L302 340ZM293 -16Q369 -16 432 9T537 80T587 191Q595 247 574 285T513 346T420 380T309 392L297 306Q327 305 352 299T396 281T422 252T426 208Q422 180 406 160T365 130T311 121Q281 121 261 134T232 169T224 222H62Q57 158 82 104T161 17T293 -16Z"
/>
<glyph unicode="4" horiz-adv-x="677" d="M5 125L632 124L657 268H512L491 247H250L425 448L381 187L361 176L331 0H504L624 700H497L5 125Z" />
<glyph unicode="5" horiz-adv-x="625" d="M606 224Q614 287 593 339T530 421T429 453Q397 453 367 447T309 428L372 554H642L665 700H269L115 297Q166 319 217 330T316 340Q347 340 374 329T417 297T428 243Q423 209 402 187T348 154T278 142Q236 142 195 163T118
217L36 79Q86 39 150 13T298 -13Q351 -13 402 2T497 47T570 121T606 224Z" />
<glyph unicode="6" horiz-adv-x="650" d="M232 246Q237 279 256 306T305 349T368 365Q401 365 423 348T455 305T460 246Q455 213 436 186T387 144T324 129Q292 130 270 145T237 187T232 246ZM410 697L175 440Q137 399 107 351T68 246Q58 167 87 108T175 17T310
-16Q388 -16 455 16T568 106T623 246Q630 308 608 359T543 442T443 473Q408 473 381 463T327 431L365 446L626 697H410Z" />
<glyph unicode="7" horiz-adv-x="585" d="M94 542H406L58 0H240L678 700H119L94 542Z" />
<glyph unicode="8" horiz-adv-x="608" d="M137 532Q131 486 145 451T190 392T259 356T341 343Q384 343 427 355T506 391T567 450T598 531Q605 574 591 608T547 667T478 703T395 716Q333 716 278 695T185 632T137 532ZM289 514Q294 536 306 554T338 583T382 595Q404
595 418 584T438 554T441 515Q438 495 425 477T391 447T348 436Q327 436 313 447T293 476T289 514ZM55 191Q48 144 64 106T112 40T188 -1T279 -16Q329 -16 377 -2T464 38T531 103T565 190Q572 241 555 280T503 344T427 383T340 396Q294 396 247 384T159 346T91
282T55 191ZM224 215Q228 239 243 260T282 294T333 307Q358 307 375 294T401 260T405 216Q401 189 385 168T346 134T294 122Q269 122 252 134T227 168T224 215Z" />
<glyph unicode="9" horiz-adv-x="650" d="M492 455Q487 422 468 395T419 352T356 336Q324 336 301 353T269 397T264 454Q269 488 288 514T337 557T400 572Q433 572 455 556T487 514T492 455ZM313 4L549 260Q587 301 617 349T655 454Q666 534 637 592T549 683T414
716Q336 716 268 685T156 595T101 454Q94 393 115 342T181 259T281 228Q315 227 342 237T397 270L358 255L98 4H313Z" />
<glyph unicode=":" horiz-adv-x="313" d="M47 68Q47 30 74 3T141 -24Q183 -24 209 3T235 68Q235 106 209 133T141 160Q101 160 74 133T47 68ZM111 442Q111 404 137 377T205 350Q247 350 273 377T299 442Q299 480 273 507T205 534Q164 534 138 507T111 442Z" />
<glyph unicode=";" horiz-adv-x="381" d="M160 436Q160 398 187 371T254 344Q296 344 322 371T348 436Q348 473 322 500T254 528Q214 528 187 501T160 436ZM127 109L-2 -147L110 -171L273 76L127 109Z" />
<glyph unicode="&lt;" horiz-adv-x="621" d="M290 264L597 376L625 530L89 315L72 215L533 1L557 143L290 264Z" />
<glyph unicode="=" horiz-adv-x="608" d="M40 84H543L566 215H63L40 84ZM75 290H578L601 421H98L75 290Z" />
<glyph unicode="&gt;" horiz-adv-x="621" d="M367 264L60 151L33 -3L568 212L585 312L125 527L100 384L367 264Z" />
<glyph unicode="?" horiz-adv-x="608" d="M466 501Q459 468 432 441T362 397T271 379H241L231 201H354L374 285Q430 297 481 324T570 395T616 500Q623 549 608 589T563 659T490 703T399 719Q313 720 245 684T119 591L208 505Q241 542 284 567T377 592Q409 592
430 581T461 549T466 501ZM172 59Q172 25 198 1T265 -23Q304 -23 330 1T357 59Q357 93 331 117T265 142Q225 142 199 118T172 59Z" />
<glyph unicode="@" horiz-adv-x="747" d="M334 320Q337 345 351 372T385 417T426 432Q440 431 448 421T457 397T458 364Q454 339 440 312T405 267T364 253Q350 254 343 264T334 289T334 320ZM216 314Q211 272 220 236T255 177T322 155Q369 154 408 184T473 263T506
370Q510 407 502 443T470 505T408 530Q362 531 320 501T250 421T216 314ZM45 320Q35 250 47 188T96 78T190 3T328 -25Q396 -26 453 -12T561 27L537 118Q492 99 446 87T348 75Q270 76 224 108T161 196T155 320Q165 382 193 437T265 534T365 599T487 623Q541 623
577 604T635 551T662 476T660 391Q658 362 649 334T625 284T596 250T566 242Q557 244 554 250T550 264T550 281Q552 288 553 295T557 308L618 520H505L444 296L453 265Q449 233 457 206T487 162T545 144Q587 143 624 161T692 212T743 291T770 390Q779 451 766 510T717
618T626 694T494 722Q408 722 333 691T197 603T97 474T45 320Z" />
<glyph unicode="A" horiz-adv-x="713" d="M174 135H536L547 264H207L174 135ZM405 443L463 216L452 174L503 0H686L456 747L-32 0H160L275 179L274 217L405 443Z" />
<glyph unicode="B" horiz-adv-x="644" d="M225 349H359Q424 349 481 368T578 425T626 522Q633 567 618 600T572 656T498 689T409 700H163L43 0H316Q390 0 453 20T558 84T610 197Q617 249 599 286T546 348T466 384T374 396H234L217 304H348Q377 304 400 296T435
269T442 221Q437 190 418 170T370 141T310 131H232L308 569H377Q415 569 436 551T450 498Q447 474 432 457T394 431T344 422H238L225 349Z" />
<glyph unicode="C" horiz-adv-x="680" d="M246 350Q254 395 276 432T331 497T404 540T488 555Q552 555 597 530T673 463L701 645Q659 679 611 698T496 716Q413 716 340 689T209 612T114 496T64 350Q53 274 71 208T130 91T236 12T381 -16Q450 -16 503 3T603 55L630
236Q587 201 533 173T408 146Q365 146 332 162T277 206T247 271T246 350Z" />
<glyph unicode="D" horiz-adv-x="711" d="M163 700L44 0H215L335 700H163ZM293 0Q376 0 447 25T573 97T665 207T713 350Q724 426 708 490T650 601T546 674T402 700H272L245 550H380Q422 550 455 537T510 498T539 435T541 350Q530 284 496 240T411 173T303 150H178L152
0H293Z" />
<glyph unicode="E" horiz-adv-x="585" d="M152 0H498L522 139H176L152 0ZM248 561H593L618 700H273L248 561ZM203 300H529L553 436H227L203 300ZM163 700L44 0H203L324 700H163Z" />
<glyph unicode="F" horiz-adv-x="537" d="M247 555H553L579 700H273L247 555ZM200 281H497L521 417H224L200 281ZM163 700L44 0H203L324 700H163Z" />
<glyph unicode="G" horiz-adv-x="790" d="M423 253H598Q584 226 565 203T522 162T468 136T400 126Q353 126 320 144T266 193T239 265T238 350Q246 397 268 437T324 506T398 552T485 569Q540 569 575 543T629 473L785 549Q742 625 672 671T501 716Q419 716 345
689T213 613T116 497T64 350Q53 273 70 206T130 87T237 7T382 -22Q473 -22 544 10T667 99T749 229T789 383H445L423 253Z" />
<glyph unicode="H" horiz-adv-x="763" d="M139 294H656L682 445H166L139 294ZM619 700L500 0H665L786 700H619ZM163 700L44 0H209L330 700H163Z" />
<glyph unicode="I" horiz-adv-x="310" d="M163 700L44 0H213L333 700H163Z" />
<glyph unicode="J" horiz-adv-x="321" d="M-112 -64L-217 -181Q-183 -204 -138 -221T-38 -238Q24 -238 77 -219T168 -158T215 -54L343 700H163L40 -15Q35 -51 12 -73T-40 -97Q-60 -98 -78 -88T-112 -64Z" />
<glyph unicode="K" horiz-adv-x="678" d="M163 700L44 0H216L336 700H163ZM561 700L230 371L456 0H651L425 369L762 700H561Z" />
<glyph unicode="L" horiz-adv-x="512" d="M163 700L43 0H482L508 145H235L330 700H163Z" />
<glyph unicode="M" horiz-adv-x="864" d="M283 356L418 64L650 350L631 0H805L823 740L456 310L240 735L3 0H180L283 356Z" />
<glyph unicode="N" horiz-adv-x="770" d="M632 700L564 305L168 733L43 0H204L272 395L667 -33L793 700H632Z" />
<glyph unicode="O" horiz-adv-x="797" d="M240 350Q247 394 267 432T318 499T388 545T472 561Q517 561 548 544T598 496T623 429T623 350Q616 307 596 269T544 201T474 156T390 140Q346 140 315 157T265 204T240 271T240 350ZM64 350Q54 275 70 208T127 90T230
8T373 -22Q454 -22 526 6T655 86T750 204T799 350Q809 425 792 491T734 608T630 687T488 716Q409 716 337 689T208 611T114 495T64 350Z" />
<glyph unicode="P" horiz-adv-x="604" d="M163 700L44 0H209L330 700H163ZM243 562H380Q410 562 431 551T462 520T466 472Q461 443 444 423T399 393T341 382H212L187 243H327Q409 243 473 270T578 348T626 471Q634 543 609 594T529 672T395 700H266L243 562Z" />
<glyph unicode="Q" horiz-adv-x="838" d="M240 350Q247 394 268 432T320 499T390 545T475 561Q524 560 558 541T612 488T638 414T638 331Q630 288 609 251T557 186T487 143T403 128Q358 128 324 146T270 195T241 266T240 350ZM64 350Q54 275 70 208T128 89T233
8T376 -22Q457 -22 529 6T657 86T750 204T799 350Q809 425 793 491T735 608T633 687T492 716Q412 716 340 689T210 611T114 495T64 350ZM373 300L641 -12H812L537 300H373Z" />
<glyph unicode="R" horiz-adv-x="628" d="M270 317L406 0H595L438 317H270ZM163 700L44 0H209L330 700H163ZM242 557H379Q409 557 430 546T461 514T466 466Q461 437 443 416T399 385T340 374H211L187 243H339Q420 243 484 270T588 350T639 471Q648 541 622 592T541
671T407 700H266L242 557Z" />
<glyph unicode="S" horiz-adv-x="607" d="M156 246L32 162Q50 110 88 68T179 2T296 -22Q365 -22 427 5T531 84T580 205Q584 259 567 299T515 367T434 413Q409 423 385 433T341 455T311 482T303 515Q304 533 315 546T345 567T386 574Q416 574 437 564T473 535T501
493L634 562Q617 604 586 639T509 695T400 716Q332 717 274 692T177 622T133 513Q129 470 142 436T179 376T231 332T287 302Q323 287 351 274T394 244T405 200Q404 179 390 162T354 134T305 124Q269 124 242 139T194 182T156 246Z" />
<glyph unicode="T" horiz-adv-x="545" d="M68 549H256L162 0H328L423 549H609L635 700H95L68 549Z" />
<glyph unicode="U" horiz-adv-x="680" d="M158 700L79 230Q68 150 95 92T179 3T313 -28Q396 -28 462 2T572 91T628 230L707 700H541L462 243Q456 210 440 183T396 139T329 124Q294 124 274 140T248 184T245 242L325 700H158Z" />
<glyph unicode="V" horiz-adv-x="713" d="M381 285L281 700H90L333 -46L809 700H611L381 285Z" />
<glyph unicode="W" horiz-adv-x="1033" d="M730 295L612 738L355 297L289 700H95L275 -44L560 379L714 -43L1124 700H924L730 295Z" />
<glyph unicode="X" horiz-adv-x="665" d="M532 700L393 500L320 700H120L276 363L-17 0H192L355 230L443 0H643L472 356L742 700H532Z" />
<glyph unicode="Y" horiz-adv-x="640" d="M542 700L366 440L279 700H92L259 288L209 0H378L426 281L738 700H542Z" />
<glyph unicode="Z" horiz-adv-x="601" d="M120 549H389L-22 0H527L553 145L268 146L684 700H147L120 549Z" />
<glyph unicode="[" horiz-adv-x="351" d="M319 649H417L437 780H190L36 -220H282L303 -89H205L319 649Z" />
<glyph unicode="\" horiz-adv-x="530" d="M107 700L347 0H487L249 700H107Z" />
<glyph unicode="]" horiz-adv-x="351" d="M86 -89H-12L-33 -220H214L368 780H121L101 649H199L86 -89Z" />
<glyph unicode="^" horiz-adv-x="495" d="M322 579L375 448H504L384 710H295L85 449H223L322 579Z" />
<glyph unicode="_" horiz-adv-x="515" d="M-54 -153H464L480 -57H-38L-54 -153Z" />
<glyph unicode="`" horiz-adv-x="364" d="M136 656L290 504L376 544L253 707L136 656Z" />
<glyph unicode="a" horiz-adv-x="598" d="M447 460L369 0H517L596 460H447ZM42 231Q34 165 53 111T115 24T219 -9Q265 -9 304 9T374 61T423 137T449 230Q455 277 449 320T423 397T371 450T292 470Q230 470 177 439T87 354T42 231ZM198 230Q203 262 222 289T269
333T329 348Q350 347 365 338T391 312T406 275T407 231Q403 207 391 185T362 147T323 121T280 113Q250 113 230 129T202 173T198 230Z" />
<glyph unicode="b" horiz-adv-x="598" d="M311 780H161L28 0H177L311 780ZM581 230Q589 296 570 350T508 437T404 470Q358 470 319 452T250 400T200 324T174 231Q168 184 174 141T200 63T253 10T332 -10Q393 -10 446 21T536 107T581 230ZM426 231Q421 199 402
172T355 128T295 113Q274 113 258 122T232 149T217 186T216 230Q221 254 232 276T262 314T300 339T343 348Q374 348 394 331T422 288T426 231Z" />
<glyph unicode="c" horiz-adv-x="475" d="M195 230Q200 264 220 290T270 333T336 350Q373 350 404 332T455 282L475 430Q448 448 414 459T334 470Q260 470 197 440T93 356T42 231Q33 161 60 107T142 22T268 -10Q315 -10 351 1T416 32L435 178Q409 150 371 130T291
111Q258 112 235 127T201 170T195 230Z" />
<glyph unicode="d" horiz-adv-x="598" d="M500 780L367 0H516L651 780H500ZM42 231Q34 165 53 111T115 24T219 -9Q265 -9 304 9T374 61T423 137T449 230Q455 277 449 320T423 397T371 450T292 470Q230 470 177 439T87 354T42 231ZM198 230Q203 262 222 289T269
333T329 348Q350 347 365 338T391 312T406 275T407 231Q403 207 391 185T362 147T323 121T280 113Q250 113 230 129T202 173T198 230Z" />
<glyph unicode="e" horiz-adv-x="557" d="M275 -10Q363 -10 426 25T526 126L396 159Q376 131 348 115T282 99Q249 99 228 114T199 157T195 221Q200 255 209 282T234 329T271 358T320 369Q346 369 362 358T387 327T396 278Q396 269 392 258T382 236L417 282H121V198H537Q542
212 545 231T548 266Q548 330 524 375T452 445T334 470Q270 470 217 449T126 392T66 306T45 200Q45 135 73 88T153 16T275 -10Z" />
<glyph unicode="f" horiz-adv-x="334" d="M68 460L46 335H354L376 460H68ZM391 636L466 745Q446 764 418 780T346 796Q292 797 252 776T186 717T152 631L45 0H189L291 592Q294 611 302 627T322 652T351 661Q364 661 373 654T391 636Z" />
<glyph unicode="g" horiz-adv-x="592" d="M6 -32Q5 -95 29 -141T104 -213T230 -238Q305 -238 364 -209T462 -125T513 10L590 460H446L368 11Q363 -27 344 -56T297 -101T233 -117Q205 -117 186 -107T158 -78T148 -33L6 -32ZM43 237Q35 171 55 118T118 34T222 3Q267
3 306 20T375 70T424 144T450 236Q456 284 450 326T423 400T371 451T292 470Q231 470 178 441T89 358T43 237ZM198 236Q204 268 222 293T268 334T329 348Q349 348 365 340T392 316T407 281T408 237Q404 213 392 192T363 156T325 133T283 125Q252 126 232 140T203
180T198 236Z" />
<glyph unicode="h" horiz-adv-x="551" d="M313 780H163L29 0H179L313 780ZM368 280L319 0H468L520 302Q527 353 517 392T477 454T391 477Q334 477 295 449T232 377T200 281L227 280Q232 303 245 322T277 354T321 364Q345 362 356 351T369 321T368 280Z" />
<glyph unicode="i" horiz-adv-x="268" d="M127 633Q127 597 153 574T215 551Q252 551 277 574T303 633Q303 669 278 691T215 714Q179 714 153 692T127 633ZM113 460L35 0H180L258 460H113Z" />
<glyph unicode="j" horiz-adv-x="264" d="M123 633Q123 597 148 574T210 551Q247 551 272 574T298 633Q298 669 273 691T210 714Q174 714 149 692T123 633ZM-76 -77L-151 -186Q-130 -206 -101 -222T-29 -238Q26 -238 66 -217T130 -158T163 -72L254 460H110L25
-34Q23 -52 16 -67T-4 -93T-33 -103Q-46 -103 -57 -96T-76 -77Z" />
<glyph unicode="k" horiz-adv-x="559" d="M161 780L28 0H171L305 780H161ZM407 460L188 274L356 0H525L360 265L591 460H407Z" />
<glyph unicode="l" horiz-adv-x="262" d="M162 780L30 0H178L313 780H162Z" />
<glyph unicode="m" horiz-adv-x="796" d="M763 296Q769 345 762 384T728 447T647 471Q599 471 560 450T492 392Q487 416 473 434T436 461T377 471Q347 471 322 462T277 436T242 397L252 460H108L29 0H173L222 284Q226 309 237 326T266 354T304 364Q324 364 333
352T344 321T343 281L293 0H442L490 281Q494 307 505 325T534 353T573 364Q595 364 603 352T613 320T613 280L562 0H713L763 296Z" />
<glyph unicode="n" horiz-adv-x="557" d="M368 280L319 0H474L525 296Q532 346 521 385T477 448T389 471Q341 471 307 451T248 396L258 460H108L29 0H179L228 282Q232 307 244 325T275 354T318 364Q343 364 354 352T368 321T368 280Z" />
<glyph unicode="o" horiz-adv-x="572" d="M48 231Q40 162 67 108T147 22T272 -10Q346 -10 408 21T511 106T561 230Q570 299 543 353T463 439T337 471Q265 471 203 440T99 355T48 231ZM201 230Q206 262 224 288T269 331T326 346Q356 345 376 329T404 287T409 231Q404
199 386 173T341 131T283 116Q253 116 234 132T205 174T201 230Z" />
<glyph unicode="p" horiz-adv-x="598" d="M140 -220L255 460H107L-10 -220H140ZM581 230Q589 297 571 353T510 443T405 476Q357 476 319 456T252 402T205 324T180 230Q174 183 179 140T201 61T250 5T330 -16Q392 -16 446 16T536 104T581 230ZM426 231Q421 199
402 173T355 133T296 119Q275 120 259 128T233 151T218 186T216 229Q221 254 232 274T261 310T300 334T342 342Q372 342 392 327T422 286T426 231Z" />
<glyph unicode="q" horiz-adv-x="598" d="M330 -220H479L596 460H446L330 -220ZM42 231Q34 163 53 107T114 18T219 -15Q266 -15 304 4T371 58T418 136T444 230Q450 277 445 320T423 399T373 455T293 476Q231 477 178 445T88 357T42 231ZM198 229Q203 261 222 287T269
328T327 342Q348 341 364 333T391 309T406 274T407 231Q403 207 391 186T362 150T324 126T281 119Q252 119 232 134T203 174T198 229Z" />
<glyph unicode="r" horiz-adv-x="403" d="M255 460H108L29 0H176L255 460ZM363 305L445 431Q431 449 412 460T367 471Q327 471 291 444T228 373T192 281L215 228Q219 255 232 278T265 316T310 330Q327 330 339 323T363 305Z" />
<glyph unicode="s" horiz-adv-x="443" d="M88 166L14 68Q44 45 79 25T155 -7T243 -19Q294 -18 334 -1T398 50T426 132Q429 172 414 198T372 242T312 273Q289 282 267 290T233 309T222 335Q223 350 236 358T271 367Q303 367 334 349T391 305L453 402Q415 430 369
450T265 470Q220 470 180 455T115 411T86 337Q82 298 97 271T139 225T196 196Q221 187 240 179T270 159T279 132Q279 115 265 104T230 92Q208 91 185 99T138 125T88 166Z" />
<glyph unicode="t" horiz-adv-x="308" d="M56 460L34 335H335L357 460H56ZM161 620L55 0H198L306 620H161Z" />
<glyph unicode="u" horiz-adv-x="557" d="M214 180L264 460H109L58 164Q51 114 62 75T105 13T193 -10Q241 -10 276 10T335 65L324 0H474L553 460H404L354 177Q350 152 337 134T305 106T261 96Q237 96 227 108T214 140T214 180Z" />
<glyph unicode="v" horiz-adv-x="512" d="M52 460L231 -55L572 460H411L270 208L209 460H52Z" />
<glyph unicode="w" horiz-adv-x="738" d="M46 460L192 -31L385 242L485 -31L801 460H641L507 226L424 498L249 228L198 460H46Z" />
<glyph unicode="x" horiz-adv-x="516" d="M395 460L294 340L231 460H65L200 244L-21 0H155L263 136L338 0H498L355 232L564 460H395Z" />
<glyph unicode="y" horiz-adv-x="505" d="M570 460H413L207 93L284 91L202 460H43L165 42L8 -219H162L570 460Z" />
<glyph unicode="z" horiz-adv-x="506" d="M273 323L-16 0H435L459 137H269L548 460H106L82 323H273Z" />
<glyph unicode="{" horiz-adv-x="387" d="M336 610Q340 632 354 646T391 661H425L442 780H349Q307 779 270 764T207 718T174 641L146 455Q139 408 122 383T71 345L55 235Q87 220 94 196T97 125L69 -60Q63 -105 80 -136T131 -183T206 -200L292 -199L309 -80L273
-79Q258 -79 249 -73T237 -55T235 -30L255 90Q260 124 261 159T253 224T219 275T146 301L143 281Q192 285 223 303T272 351T301 417T318 490L336 610Z" />
<glyph unicode="|" horiz-adv-x="342" d="M200 785L46 -215H196L350 785H200Z" />
<glyph unicode="}" horiz-adv-x="387" d="M109 -30Q105 -52 91 -66T54 -80H21L3 -200H97Q139 -199 176 -183T238 -137T271 -60L299 125Q305 173 322 198T374 236L390 345Q358 360 351 384T348 455L376 640Q383 686 365 717T314 764T239 780H154L137 660H172Q187
660 196 653T208 636T210 611L190 491Q185 457 184 422T192 356T227 305T299 280L302 300Q253 297 222 278T173 229T145 164T128 91L109 -30Z" />
<glyph unicode="~" horiz-adv-x="558" d="M162 163Q161 170 161 177T161 192Q165 208 177 222T211 237Q224 238 236 234T261 221T286 204Q315 183 342 169T399 154Q436 153 465 167T515 206Q533 227 543 252T555 302Q557 309 557 316T555 330L436 336Q438 328
439 320T438 302Q435 288 424 276T398 263Q383 263 368 274T335 297Q306 319 280 332T220 346Q176 346 144 330T88 287Q70 267 59 243T45 194Q44 187 44 181T45 169L162 163Z" />
<glyph unicode="&#xa0;" horiz-adv-x="301" />
<glyph unicode="&#xa1;" horiz-adv-x="333" d="M192 -229L241 239H120L8 -229H192ZM301 408Q307 445 283 469T221 495Q183 495 153 471T117 410Q113 373 136 349T198 324Q236 323 266 347T301 408Z" />
<glyph unicode="&#xa2;" horiz-adv-x="563" d="M208 38L172 -112H300L318 38H208ZM212 230Q218 264 239 291T291 334T355 350Q397 350 426 330T473 280L496 430Q469 449 433 459T355 470Q281 470 218 440T112 356T60 231Q50 161 76 107T156 22T283 -10Q326 -10
363 1T431 30L452 179Q426 153 389 132T307 111Q274 112 251 127T217 170T212 230ZM291 578L274 428H384L420 578H291Z" />
<glyph unicode="&#xa3;" horiz-adv-x="593" d="M100 370L82 270H452L471 370H100ZM476 468L617 517Q618 555 604 589T563 650T496 694T407 710Q361 710 316 698T235 661T174 602T143 522Q139 485 149 456T174 400T199 347T205 286Q196 232 170 184T107 92T23 0H497L522
139H180L117 52Q151 61 188 81T259 129T316 193T346 270Q350 305 341 334T319 388T298 440T295 495Q300 521 315 539T352 567T400 576Q425 576 440 566T464 541T474 506T476 468Z" />
<glyph unicode="&#xa4;" horiz-adv-x="560" d="M80 505L166 405L232 462L151 566L80 505ZM66 35L177 133L124 197L13 101L66 35ZM486 404L597 501L545 566L432 470L486 404ZM375 137L460 36L527 94L445 197L375 137ZM72 301Q63 237 85 182T154 94T269 60Q337 60
394 92T489 179T537 300Q546 364 524 418T455 506T341 540Q273 540 216 508T120 421T72 301ZM207 299Q212 328 228 351T271 389T326 403Q355 403 373 389T399 351T403 301Q398 272 381 249T338 212T284 198Q255 199 237 212T210 249T207 299Z" />
<glyph unicode="&#xa5;" horiz-adv-x="649" d="M61 266L622 265L639 365H78L61 266ZM35 116L596 115L614 215H52L35 116ZM547 700L369 440L283 700H96L263 289L212 0H383L431 283L742 700H547Z" />
<glyph unicode="&#xa6;" horiz-adv-x="342" d="M188 695L142 431H292L338 695H188ZM265 270H115L69 5H219L265 270Z" />
<glyph unicode="&#xa7;" horiz-adv-x="559" d="M459 550L542 646Q517 682 470 703T368 724Q323 724 280 707T205 658T167 579Q163 552 170 530T191 490T224 459T265 436Q288 426 313 415T354 388T365 345Q362 325 349 310T317 286T279 271L272 230Q311 231 349
239T421 265T476 310T505 377Q510 413 496 441T454 489T392 520Q378 524 363 528T334 537T313 550T306 568Q308 578 316 584T338 595T365 599Q390 599 415 585T459 550ZM123 173L39 77Q62 47 92 25T162 -9T251 -22Q299 -21 346 -5T426 46T467 130Q471 167 458 195T420
244T364 279Q347 286 327 293T289 309T262 332T256 369Q259 390 272 403T305 425T343 442L349 479Q310 478 270 470T196 445T140 401T112 335Q107 298 124 270T172 224T237 194Q257 188 276 182T309 165T319 138Q317 127 308 119T285 107T256 103Q222 102 187 121T123
173Z" />
<glyph unicode="&#xa8;" horiz-adv-x="496" d="M360 633Q356 598 379 575T437 551Q471 551 500 574T533 631Q537 666 515 689T456 714Q422 714 393 691T360 633ZM124 633Q120 598 143 575T201 551Q235 551 264 574T297 631Q301 666 279 689T220 714Q186 714 157
691T124 633Z" />
<glyph unicode="&#xa9;" horiz-adv-x="776" d="M317 350Q323 386 344 413T396 457T462 473Q501 473 527 458T574 418L589 527Q563 547 534 558T463 570Q398 570 344 542T253 464T209 351Q201 289 223 239T293 160T404 131Q446 131 477 142T535 173L550 282Q524
261 492 244T417 228Q383 229 359 245T324 288T317 350ZM131 350Q141 413 171 469T248 569T353 636T477 660Q542 660 591 635T672 565T716 466T720 350Q710 287 680 231T603 132T498 65T373 41Q309 41 260 66T179 135T135 234T131 350ZM74 350Q65 278 82 213T140
98T239 19T374 -10Q451 -10 519 18T641 95T730 209T776 350Q785 423 768 488T711 603T611 681T476 710Q400 710 332 683T209 606T120 491T74 350Z" />
<glyph unicode="&#xaa;" horiz-adv-x="262" d="M155 530Q157 544 171 553T202 562Q219 563 231 558T256 543L261 579Q250 589 230 596T186 603Q148 603 116 584T79 529Q75 496 97 476T151 456Q187 456 211 475T243 524L240 553Q234 531 218 518T180 505Q168 505
161 512T155 530ZM143 625Q156 631 176 638T219 644Q236 643 243 634T251 611L223 461L296 460L323 631Q327 669 299 687T229 705Q200 705 174 697T126 680L143 625Z" />
<glyph unicode="&#xab;" horiz-adv-x="525" d="M358 257L537 442L453 509L241 260L372 1L471 62L358 257ZM160 257L340 442L256 509L43 260L174 1L274 62L160 257Z" />
<glyph unicode="&#xac;" horiz-adv-x="631" d="M83 273H486L467 175H572L612 403H104L83 273Z" />
<glyph unicode="&#xad;" horiz-adv-x="204" d="M13 201H209L222 275H25L13 201Z" />
<glyph unicode="&#xae;" horiz-adv-x="776" d="M400 328L463 150H577L488 328H400ZM316 570L251 150H351L417 570H316ZM365 485H448Q473 483 488 471T501 433Q497 408 475 395T426 380H348L336 302L428 303Q500 305 548 340T605 439Q613 499 572 534T462 570H378L365
485ZM131 350Q141 413 171 469T248 569T353 636T477 660Q542 660 591 635T672 565T716 466T720 350Q710 287 680 231T603 132T498 65T373 41Q309 41 260 66T179 135T135 234T131 350ZM74 350Q65 278 82 213T140 98T239 19T374 -10Q451 -10 519 18T641 95T730 209T776
350Q785 423 768 488T711 603T611 681T476 710Q400 710 332 683T209 606T120 491T74 350Z" />
<glyph unicode="&#xaf;" horiz-adv-x="516" d="M147 572H511L531 703H168L147 572Z" />
<glyph unicode="&#xb0;" horiz-adv-x="288" d="M90 598Q83 546 115 511T201 475Q238 475 269 490T321 533T348 596Q353 631 340 659T299 703T235 720Q200 720 169 704T116 661T90 598ZM163 596Q166 612 176 625T201 648T231 656Q254 655 265 638T274 598Q272 582
261 569T236 548T206 540Q183 540 172 557T163 596Z" />
<glyph unicode="&#xb1;" horiz-adv-x="615" d="M46 6H537L558 136H66L46 6ZM96 333H587L609 468H118L96 333ZM310 620L243 181H394L462 620H310Z" />
<glyph unicode="&#xb2;" horiz-adv-x="396" d="M42 283L391 282L407 375L247 376L357 463Q385 485 406 513T432 575Q438 611 423 641T375 691T297 711Q245 711 206 689T144 629T110 548L209 547Q215 567 225 584T251 613T288 624Q304 623 313 616T327 596T329
571Q325 543 303 521T257 476L42 283Z" />
<glyph unicode="&#xb3;" horiz-adv-x="354" d="M205 484Q249 486 291 496T362 529T397 591Q403 625 387 651T340 693T269 708Q204 708 162 671T106 579L200 578Q207 598 223 612T262 627Q282 627 291 615T299 586Q296 569 283 557T252 538T212 529L205 484ZM198
271Q243 271 281 285T345 328T375 394Q380 428 368 451T332 487T275 507T208 515L200 464Q224 463 243 457T272 439T277 406Q274 382 253 367T207 353Q181 354 169 370T156 413H59Q57 375 72 343T118 291T198 271Z" />
<glyph unicode="&#xb4;" horiz-adv-x="364" d="M394 651L285 706L117 549L199 505L394 651Z" />
<glyph unicode="&#xb5;" horiz-adv-x="569" d="M264 460H109L-25 -320H119L176 16Q191 5 206 1T237 -3Q265 -3 290 12T333 52L324 0H475L552 460H407L360 203Q356 179 344 160T314 131T271 121Q247 121 234 131T217 159T216 201L264 460Z" />
<glyph unicode="&#xb6;" horiz-adv-x="651" d="M297 271L214 -220H344L486 607H541L399 -220H530L687 700H371Q307 700 252 675T160 602T113 486Q104 422 126 375T192 302T297 271Z" />
<glyph unicode="&#xb7;" horiz-adv-x="313" d="M83 269Q80 245 89 224T118 190T163 177Q189 176 211 188T249 222T268 267Q271 292 262 312T233 346T188 360Q162 361 139 348T101 315T83 269Z" />
<glyph unicode="&#xb8;" horiz-adv-x="382" d="M160 71L45 -122Q69 -114 92 -110T130 -107Q142 -107 154 -110T174 -119T180 -138Q180 -149 170 -157T146 -170T119 -175Q102 -175 83 -168T47 -150L-6 -216Q26 -237 59 -247T131 -256Q163 -256 194 -244T247 -207T274
-149Q280 -106 256 -79T197 -51Q189 -51 181 -52T164 -54L273 67L160 71Z" />
<glyph unicode="&#xb9;" horiz-adv-x="468" d="M199 572L304 597L249 274H347L421 703L214 662L199 572Z" />
<glyph unicode="&#xba;" horiz-adv-x="270" d="M89 581Q82 529 115 495T201 461Q237 461 268 476T321 518T347 579Q352 614 338 641T297 684T234 700Q198 700 167 685T115 643T89 581ZM165 579Q168 595 177 608T201 630T230 638Q251 637 262 620T270 581Q268 565
258 552T234 532T205 524Q183 524 173 541T165 579Z" />
<glyph unicode="&#xbb;" horiz-adv-x="525" d="M200 254L21 69L106 2L317 251L187 510L87 448L200 254ZM397 254L219 69L303 2L515 251L384 510L284 448L397 254Z" />
<glyph unicode="&#xbc;" horiz-adv-x="798" d="M701 700L77 0H177L801 700H701ZM93 572L198 597L143 274H240L314 703L108 662L93 572ZM377 76L755 75L770 161H661L649 148L470 147L377 76ZM488 105L630 266L602 103L590 97L574 0H678L751 420H673L374 73L488 105Z" />
<glyph unicode="&#xbd;" horiz-adv-x="867" d="M701 700L77 0H177L801 700H701ZM93 572L198 597L143 274H240L314 703L108 662L93 572ZM461 3L810 2L826 95L666 96L775 183Q803 205 824 233T851 295Q856 331 841 361T793 411T715 431Q663 431 625 409T562 349T529
268L628 267Q633 287 643 304T670 333T705 343Q722 343 732 335T745 315T748 291Q744 263 722 241T676 196L461 3Z" />
<glyph unicode="&#xbe;" horiz-adv-x="853" d="M762 700L139 0H239L863 700H762ZM214 484Q257 486 298 496T369 529T405 591Q411 625 395 651T348 693T277 708Q212 708 169 671T114 579L208 578Q214 598 230 612T270 627Q290 627 299 615T306 586Q304 569 291
557T260 538T220 529L214 484ZM206 271Q251 271 289 285T352 328T384 394Q389 428 377 451T340 487T283 507T217 515L208 464Q232 463 251 457T280 439T285 406Q282 382 261 367T215 353Q188 354 176 370T164 413H67Q65 375 80 343T127 291T206 271ZM433 76L812
75L827 161H718L705 148L525 147L433 76ZM544 105L686 266L658 103L646 97L630 0H735L807 420H729L429 73L544 105Z" />
<glyph unicode="&#xbf;" horiz-adv-x="608" d="M207 200Q215 233 242 260T312 303T403 321H433L443 499H320L300 415Q245 404 193 377T105 305T58 201Q52 152 66 112T112 42T185 -3T274 -19Q361 -19 429 16T555 109L466 195Q434 159 390 134T297 109Q266 110 245
121T213 152T207 200ZM498 640Q503 674 479 699T417 724Q392 725 370 714T332 684T314 642Q309 609 333 585T395 559Q420 559 442 570T480 600T498 640Z" />
<glyph unicode="&#xc0;" horiz-adv-x="713" d="M174 136L536 135L547 264H207L174 136ZM409 443L463 216L449 174L503 0H686L456 747L-32 0H160L275 179L274 217L409 443ZM337 957L489 804L575 845L454 1007L337 957Z" />
<glyph unicode="&#xc1;" horiz-adv-x="713" d="M174 136L536 135L547 264H207L174 136ZM409 443L463 216L449 174L503 0H686L456 747L-32 0H160L275 179L274 217L409 443ZM647 952L539 1006L368 850L449 805L647 952Z" />
<glyph unicode="&#xc2;" horiz-adv-x="713" d="M174 136L536 135L547 264H207L174 136ZM409 443L463 216L449 174L503 0H686L456 747L-32 0H160L275 179L274 217L409 443ZM483 874L556 789L668 858L496 1000L285 863L379 790L483 874Z" />
<glyph unicode="&#xc3;" horiz-adv-x="713" d="M174 136L536 135L547 264H207L174 136ZM409 443L463 216L449 174L503 0H686L456 747L-32 0H160L275 179L274 217L409 443ZM285 864L349 801Q355 815 367 832T404 851Q428 852 447 840T486 814T531 799Q561 798 588
811T637 843T672 882L611 958Q596 938 578 923T538 906Q513 905 496 917T460 943T414 957Q384 958 358 944T314 909T285 864Z" />
<glyph unicode="&#xc4;" horiz-adv-x="713" d="M174 136L536 135L547 264H207L174 136ZM409 443L463 216L449 174L503 0H686L456 747L-32 0H160L275 179L274 217L409 443ZM521 832Q517 797 539 774T597 749Q631 749 660 772T693 829Q698 864 676 887T619 912Q584
912 555 889T521 832ZM244 838Q240 803 262 780T319 756Q354 755 383 778T416 835Q421 870 399 894T341 918Q307 918 278 895T244 838Z" />
<glyph unicode="&#xc5;" horiz-adv-x="713" d="M174 136L536 135L547 264H207L174 136ZM409 443L463 216L449 174L503 0H686L456 747L-32 0H160L275 179L274 217L409 443ZM344 801Q339 769 352 743T391 702T449 686Q483 686 513 701T564 741T589 799Q593 833 580
859T541 900T482 916Q448 916 419 901T369 860T344 801ZM421 800Q423 813 431 824T452 842T476 849Q493 848 503 834T511 801Q509 783 491 768T455 754Q438 755 429 768T421 800Z" />
<glyph unicode="&#xc6;" horiz-adv-x="1053" d="M259 151H559L586 306H292L259 151ZM521 700L-16 0H197L670 658L521 700ZM584 0H959L983 139H607L584 0ZM692 561H1055L1079 700H521L692 561ZM635 300H991L1015 436H659L635 300ZM624 700L505 0H683L803 700H624Z" />
<glyph unicode="&#xc7;" horiz-adv-x="680" d="M246 350Q254 395 276 432T331 497T404 540T488 555Q552 555 597 530T673 463L701 645Q659 679 611 698T496 716Q413 716 340 689T209 613T114 496T64 350Q53 274 71 208T130 91T236 12T381 -16Q450 -16 503 3T603
55L630 236Q587 201 533 173T408 146Q365 146 332 162T277 206T247 271T246 350ZM326 47L211 -145Q234 -137 258 -133T296 -130Q308 -130 320 -133T339 -142T346 -161Q346 -172 336 -180T311 -193T284 -198Q268 -198 249 -192T212 -173L159 -239Q192 -260 225 -270T297
-280Q329 -279 360 -267T413 -230T440 -172Q445 -129 421 -103T363 -74Q354 -74 346 -75T330 -77L438 44L326 47Z" />
<glyph unicode="&#xc8;" horiz-adv-x="585" d="M152 0H498L522 139H176L152 0ZM248 561H593L618 700H273L248 561ZM203 300H529L553 436H227L203 300ZM163 700L44 0H203L324 700H163ZM273 935L426 782L512 823L391 985L273 935Z" />
<glyph unicode="&#xc9;" horiz-adv-x="585" d="M152 0H498L522 139H176L152 0ZM248 561H593L618 700H273L248 561ZM203 300H529L553 436H227L203 300ZM163 700L44 0H203L324 700H163ZM584 930L476 984L306 828L387 783L584 930Z" />
<glyph unicode="&#xca;" horiz-adv-x="585" d="M152 0H498L522 139H176L152 0ZM248 561H593L618 700H273L248 561ZM203 300H529L553 436H227L203 300ZM163 700L44 0H203L324 700H163ZM421 861L494 776L606 845L435 987L223 851L317 777L421 861Z" />
<glyph unicode="&#xcb;" horiz-adv-x="585" d="M152 0H498L522 139H176L152 0ZM248 561H593L618 700H273L248 561ZM203 300H529L553 436H227L203 300ZM163 700L44 0H203L324 700H163ZM454 867Q450 832 472 809T530 785Q564 784 593 807T626 865Q631 899 609 923T551
947Q517 948 488 925T454 867ZM218 867Q214 832 236 809T293 785Q328 784 357 807T390 865Q395 899 373 923T315 947Q280 948 251 925T218 867Z" />
<glyph unicode="&#xcc;" horiz-adv-x="310" d="M163 700L44 0H213L333 700H163ZM125 935L277 782L364 823L243 985L125 935Z" />
<glyph unicode="&#xcd;" horiz-adv-x="310" d="M163 700L44 0H213L333 700H163ZM436 930L329 984L158 828L238 783L436 930Z" />
<glyph unicode="&#xce;" horiz-adv-x="310" d="M163 700L44 0H213L333 700H163ZM269 861L343 776L454 845L283 987L71 851L165 777L269 861Z" />
<glyph unicode="&#xcf;" horiz-adv-x="310" d="M163 700L44 0H213L333 700H163ZM307 860Q303 825 325 802T382 777Q417 777 446 800T480 857Q484 892 462 915T404 940Q369 940 340 917T307 860ZM71 860Q66 825 88 802T146 777Q180 777 209 800T243 857Q247 892
225 915T167 940Q133 940 104 917T71 860Z" />
<glyph unicode="&#xd0;" horiz-adv-x="711" d="M29 303H371L388 402H46L29 303ZM163 700L44 0H215L335 700H163ZM293 0Q403 2 492 45T639 167T713 350Q728 452 694 530T585 654T402 700H272L245 550H380Q437 549 476 526T533 458T541 350Q530 284 496 240T411
174T303 150H178L152 0H293Z" />
<glyph unicode="&#xd1;" horiz-adv-x="770" d="M632 700L564 305L168 733L43 0H204L272 395L667 -33L793 700H632ZM281 835L344 772Q350 786 362 803T400 822Q423 823 442 811T482 785T526 770Q556 769 583 782T633 814T667 853L606 928Q591 909 573 893T533 876Q508
876 491 888T455 914T409 927Q379 928 354 915T310 880T281 835Z" />
<glyph unicode="&#xd2;" horiz-adv-x="797" d="M240 350Q247 394 267 432T318 499T388 545T472 561Q517 561 548 544T598 496T623 429T623 350Q616 307 596 269T544 201T474 156T390 140Q346 140 315 157T265 204T240 271T240 350ZM64 350Q54 275 70 208T127 90T230
8T373 -22Q454 -22 526 6T655 86T750 204T799 350Q809 425 792 491T734 608T630 687T488 716Q409 716 337 689T208 611T114 495T64 350ZM387 935L540 782L626 823L505 985L387 935Z" />
<glyph unicode="&#xd3;" horiz-adv-x="797" d="M240 350Q247 394 267 432T318 499T388 545T472 561Q517 561 548 544T598 496T623 429T623 350Q616 307 596 269T544 201T474 156T390 140Q346 140 315 157T265 204T240 271T240 350ZM64 350Q54 275 70 208T127 90T230
8T373 -22Q454 -22 526 6T655 86T750 204T799 350Q809 425 792 491T734 608T630 687T488 716Q409 716 337 689T208 611T114 495T64 350ZM691 930L583 984L412 828L493 783L691 930Z" />
<glyph unicode="&#xd4;" horiz-adv-x="797" d="M240 350Q247 394 267 432T318 499T388 545T472 561Q517 561 548 544T598 496T623 429T623 350Q616 307 596 269T544 201T474 156T390 140Q346 140 315 157T265 204T240 271T240 350ZM64 350Q54 275 70 208T127 90T230
8T373 -22Q454 -22 526 6T655 86T750 204T799 350Q809 425 792 491T734 608T630 687T489 716Q409 716 338 689T209 611T114 495T64 350ZM526 861L599 776L711 845L539 987L328 851L422 777L526 861Z" />
<glyph unicode="&#xd5;" horiz-adv-x="797" d="M240 350Q247 394 267 432T318 499T388 545T472 561Q517 561 548 544T598 496T623 429T623 350Q616 307 596 269T544 201T474 156T390 140Q346 140 315 157T265 204T240 271T240 350ZM64 350Q54 275 70 208T127 90T230
8T373 -22Q454 -22 526 6T655 86T750 204T799 350Q809 425 792 491T734 608T630 687T489 716Q409 716 338 689T209 611T114 495T64 350ZM321 841L385 777Q391 791 403 808T440 827Q464 829 483 816T523 790T567 776Q597 775 624 787T673 820T707 858L647 934Q632
914 614 899T573 882Q549 882 532 894T496 920T450 933Q422 934 395 921T348 886T321 841Z" />
<glyph unicode="&#xd6;" horiz-adv-x="797" d="M240 350Q247 394 267 432T318 499T388 545T472 561Q517 561 548 544T598 496T623 429T623 350Q616 307 596 269T544 201T474 156T390 140Q346 140 315 157T265 204T240 271T240 350ZM64 350Q54 275 70 208T127 90T230
8T373 -22Q454 -22 526 6T655 86T750 204T799 350Q809 425 792 491T734 608T630 687T488 716Q409 716 337 689T208 611T114 495T64 350ZM550 860Q545 825 567 802T625 777Q660 777 689 800T723 857Q726 892 704 915T647 940Q612 940 583 917T550 860ZM314 860Q309
825 331 802T389 777Q424 777 453 800T486 857Q490 892 468 915T410 940Q376 940 347 917T314 860Z" />
<glyph unicode="&#xd7;" horiz-adv-x="578" d="M112 3L294 165L419 3L523 93L392 252L577 409L500 507L318 346L192 507L89 418L220 258L35 101L112 3Z" />
<glyph unicode="&#xd8;" horiz-adv-x="767" d="M240 350Q247 394 267 432T318 500T388 545T472 561Q517 561 548 544T598 497T623 429T623 350Q616 306 596 268T544 201T474 156T390 140Q346 140 315 157T265 204T240 271T240 350ZM64 350Q54 275 70 208T128 90T231
8T373 -22Q454 -22 526 6T655 86T749 204T799 350Q809 425 792 491T734 608T630 687T489 716Q408 716 336 689T208 611T114 495T64 350ZM775 756L19 -3L83 -56L840 700L775 756Z" />
<glyph unicode="&#xd9;" horiz-adv-x="680" d="M158 700L79 230Q68 150 95 92T178 3T313 -28Q393 -28 459 3T570 91T628 230L707 700H541L462 243Q456 210 439 183T394 139T329 124Q294 125 274 141T248 185T245 242L325 700H158ZM315 928L468 776L553 816L433
979L315 928Z" />
<glyph unicode="&#xda;" horiz-adv-x="680" d="M158 700L79 230Q68 150 95 92T178 3T313 -28Q393 -28 459 3T570 91T628 230L707 700H541L462 243Q456 210 439 183T394 139T329 124Q294 125 274 141T248 185T245 242L325 700H158ZM629 924L521 978L350 822L431
777L629 924Z" />
<glyph unicode="&#xdb;" horiz-adv-x="680" d="M158 700L79 230Q68 150 95 92T178 3T313 -28Q393 -28 459 3T570 91T628 230L707 700H541L462 243Q456 210 439 183T394 139T329 124Q294 125 274 141T248 185T245 242L325 700H158ZM464 861L538 776L649 845L478
987L266 851L360 777L464 861Z" />
<glyph unicode="&#xdc;" horiz-adv-x="680" d="M158 700L79 230Q68 150 95 92T178 3T313 -28Q393 -28 459 3T570 91T628 230L707 700H541L462 243Q456 210 439 183T394 139T329 124Q294 125 274 141T248 185T245 242L325 700H158ZM509 860Q506 825 528 802T585
777Q620 777 649 800T682 857Q687 892 665 915T607 940Q572 940 543 917T509 860ZM237 860Q233 825 255 802T312 777Q347 777 376 800T410 857Q414 892 392 915T334 940Q299 940 270 917T237 860Z" />
<glyph unicode="&#xdd;" horiz-adv-x="640" d="M609 924L501 978L331 822L411 777L609 924ZM542 700L366 440L279 700H92L259 288L209 0H378L426 281L738 700H542Z" />
<glyph unicode="&#xde;" horiz-adv-x="594" d="M169 700L50 0H195L315 700H169ZM216 446H355Q388 445 412 436T447 406T452 354Q447 321 428 301T379 271T314 260H185L161 128H301Q382 129 445 155T549 232T600 353Q612 424 585 474T503 551T368 579H239L216 446Z" />
<glyph unicode="&#xdf;" horiz-adv-x="603" d="M385 -12Q445 -12 493 15T571 89T600 193Q600 236 588 263T556 308T518 337T486 362T473 395Q473 412 486 428T520 462T561 501T594 552T608 621Q608 674 580 713T503 775T394 797Q306 797 248 767T158 682T115 553L22
-2H173L266 551Q271 588 286 612T323 649T377 662Q410 662 430 645T450 592Q450 563 437 542T403 502T363 466T328 429T314 383Q314 357 327 339T359 306T397 277T430 241T443 192Q443 169 432 151T402 121T357 110Q333 110 307 119T260 143L229 28Q246 17 272
8T329 -7T385 -12Z" />
<glyph unicode="&#xe0;" horiz-adv-x="598" d="M447 460L369 0H517L596 460H447ZM42 231Q34 165 53 111T115 24T219 -9Q265 -9 304 9T374 61T423 137T449 230Q455 277 449 320T423 397T371 450T292 470Q230 470 177 439T87 354T42 231ZM198 230Q203 262 222 289T269
333T329 348Q350 347 365 338T391 312T406 275T407 231Q403 207 391 185T362 147T323 121T280 113Q250 113 230 129T202 173T198 230ZM217 683L370 531L455 571L335 734L217 683Z" />
<glyph unicode="&#xe1;" horiz-adv-x="598" d="M447 460L369 0H517L596 460H447ZM42 231Q34 165 53 111T115 24T219 -9Q265 -9 304 9T374 61T423 137T449 230Q455 277 449 320T423 397T371 450T292 470Q230 470 177 439T87 354T42 231ZM198 230Q203 262 222 289T269
333T329 348Q350 347 365 338T391 312T406 275T407 231Q403 207 391 185T362 147T323 121T280 113Q250 113 230 129T202 173T198 230ZM526 678L419 732L248 576L329 532L526 678Z" />
<glyph unicode="&#xe2;" horiz-adv-x="598" d="M447 460L369 0H517L596 460H447ZM42 231Q34 165 53 111T115 24T219 -9Q265 -9 304 9T374 61T423 137T449 230Q455 277 449 320T423 397T371 450T292 470Q230 470 177 439T87 354T42 231ZM198 230Q203 262 222 289T269
333T329 348Q350 347 365 338T391 312T406 275T407 231Q403 207 391 185T362 147T323 121T280 113Q250 113 230 129T202 173T198 230ZM387 616L461 530L572 599L401 742L189 605L283 531L387 616Z" />
<glyph unicode="&#xe3;" horiz-adv-x="598" d="M447 460L369 0H517L596 460H447ZM42 231Q34 165 53 111T115 24T219 -9Q265 -9 304 9T374 61T423 137T449 230Q455 277 449 320T423 397T371 450T292 470Q230 470 177 439T87 354T42 231ZM198 230Q203 262 222 289T269
333T329 348Q350 347 365 338T391 312T406 275T407 231Q403 207 391 185T362 147T323 121T280 113Q250 113 230 129T202 173T198 230ZM195 598L258 535Q264 549 276 566T314 585Q337 586 356 574T396 548T440 533Q470 532 497 545T546 577T580 616L520 692Q505
672 487 657T446 640Q421 639 404 651T369 677T323 691Q292 691 267 678T223 644T195 598Z" />
<glyph unicode="&#xe4;" horiz-adv-x="598" d="M447 460L369 0H517L596 460H447ZM42 231Q34 165 53 111T115 24T219 -9Q265 -9 304 9T374 61T423 137T449 230Q455 277 449 320T423 397T371 450T292 470Q230 470 177 439T87 354T42 231ZM198 230Q203 262 222 289T269
333T329 348Q350 347 365 338T391 312T406 275T407 231Q403 207 391 185T362 147T323 121T280 113Q250 113 230 129T202 173T198 230ZM408 614Q404 579 426 556T484 532Q519 531 548 554T581 611Q585 646 563 670T505 694Q471 694 442 671T408 614ZM172 614Q168
579 190 556T247 532Q282 531 311 554T344 611Q348 646 326 670T269 694Q234 694 205 671T172 614Z" />
<glyph unicode="&#xe5;" horiz-adv-x="598" d="M447 460L369 0H517L596 460H447ZM42 231Q34 165 53 111T115 24T219 -9Q265 -9 304 9T374 61T423 137T449 230Q455 277 449 320T423 397T371 450T292 470Q230 470 177 439T87 354T42 231ZM198 230Q203 262 222 289T269
333T329 348Q350 347 365 338T391 312T406 275T407 231Q403 207 391 185T362 147T323 121T280 113Q250 113 230 129T202 173T198 230ZM250 647Q245 614 258 588T297 547T356 531Q389 531 419 546T470 587T495 645Q499 678 486 704T447 746T387 761Q354 762 325
747T275 706T250 647ZM327 645Q329 658 337 669T358 687T382 694Q400 693 409 679T417 647Q416 635 407 624T386 606T361 599Q344 600 335 614T327 645Z" />
<glyph unicode="&#xe6;" horiz-adv-x="887" d="M189 -10Q271 -10 327 19T410 103H397Q414 45 460 18T585 -10Q670 -10 735 23T847 126L715 159Q697 130 665 115T594 99Q561 99 542 113T515 153T511 216L489 198H856Q859 205 862 219T867 250Q875 320 855 369T790
444T678 470Q628 470 585 456T507 416T448 354L464 360Q467 418 431 445T320 473Q270 473 217 460T105 420L143 318Q163 330 189 339T243 353T293 358Q330 358 348 340T361 286L351 224H420Q359 255 318 267T233 279Q173 279 125 260T48 206T15 126Q8 64 52 27T189
-10ZM231 89Q197 89 182 100T169 136Q170 156 181 169T212 190T258 197Q287 197 314 190T364 168L345 195L344 133L350 186Q338 138 308 114T231 89ZM512 236Q522 279 538 308T579 353T637 369Q666 369 683 357T706 322T710 266Q710 259 706 250L733 282H498L512
236Z" />
<glyph unicode="&#xe7;" horiz-adv-x="479" d="M193 230Q199 263 220 290T272 333T337 350Q374 350 405 332T454 282L476 430Q449 448 415 459T336 470Q262 470 199 440T93 356T40 231Q30 161 56 107T137 22T263 -10Q310 -10 346 1T412 32L433 178Q406 149 368
130T287 111Q254 112 231 128T198 170T193 230ZM211 60L96 -133Q119 -125 143 -121T181 -118Q193 -118 205 -120T224 -130T231 -148Q231 -160 221 -168T197 -181T169 -186Q153 -186 134 -179T97 -160L44 -226Q77 -247 110 -257T182 -267Q214 -267 245 -254T298
-218T325 -160Q330 -117 306 -90T248 -62Q239 -62 231 -63T215 -65L323 56L211 60Z" />
<glyph unicode="&#xe8;" horiz-adv-x="557" d="M121 199H531Q534 210 535 219T538 237Q547 306 526 358T456 440T331 470Q262 470 206 446T111 379T53 279Q49 267 47 255T42 230Q33 163 56 109T132 23T261 -10Q321 -10 368 7T453 54T520 124L389 159Q375 142 357
129T316 108T268 100Q236 102 218 119T193 165T191 230L198 254Q205 286 221 312T262 354T319 369Q345 368 359 357T379 326T385 282H134L121 199ZM213 687L365 534L451 575L330 737L213 687Z" />
<glyph unicode="&#xe9;" horiz-adv-x="557" d="M121 199H531Q534 210 535 219T538 237Q547 306 526 358T456 440T331 470Q262 470 206 446T111 379T53 279Q49 267 47 255T42 230Q33 163 56 109T132 23T261 -10Q321 -10 368 7T453 54T520 124L389 159Q375 142 357
129T316 108T268 100Q236 102 218 119T193 165T191 230L198 254Q205 286 221 312T262 354T319 369Q345 368 359 357T379 326T385 282H134L121 199ZM541 682L432 736L263 580L343 535L541 682Z" />
<glyph unicode="&#xea;" horiz-adv-x="557" d="M121 199H531Q534 210 535 219T538 237Q547 306 526 358T456 440T331 470Q262 470 206 446T111 379T53 279Q49 267 47 255T42 230Q33 163 56 109T132 23T261 -10Q321 -10 368 7T453 54T520 124L389 159Q375 142 357
129T316 108T268 100Q236 102 218 119T193 165T191 230L198 254Q205 286 221 312T262 354T319 369Q345 368 359 357T379 326T385 282H134L121 199ZM364 616L438 530L550 599L378 742L167 605L261 531L364 616Z" />
<glyph unicode="&#xeb;" horiz-adv-x="557" d="M121 199H531Q534 210 535 219T538 237Q547 306 526 358T456 440T331 470Q262 470 206 446T111 379T53 279Q49 267 47 255T42 230Q33 163 56 109T132 23T261 -10Q321 -10 368 7T453 54T520 124L389 159Q375 142 357
129T316 108T268 100Q236 102 218 119T193 165T191 230L198 254Q205 286 221 312T262 354T319 369Q345 368 359 357T379 326T385 282H134L121 199ZM392 614Q388 579 410 556T467 532Q502 531 531 554T564 611Q569 646 547 670T489 694Q455 694 426 671T392 614ZM155
614Q151 579 173 556T231 532Q265 531 294 554T328 611Q332 646 310 670T253 694Q218 694 189 671T155 614Z" />
<glyph unicode="&#xec;" horiz-adv-x="268" d="M113 460L35 0H179L258 460H113ZM50 690L202 538L288 578L167 741L50 690Z" />
<glyph unicode="&#xed;" horiz-adv-x="268" d="M113 460L35 0H179L258 460H113ZM392 686L284 740L114 584L195 539L392 686Z" />
<glyph unicode="&#xee;" horiz-adv-x="268" d="M113 460L35 0H179L258 460H113ZM216 619L290 534L401 603L230 745L18 609L113 535L216 619Z" />
<glyph unicode="&#xef;" horiz-adv-x="268" d="M113 460L35 0H179L258 460H113ZM245 625Q241 591 263 567T321 543Q356 543 385 566T418 623Q422 657 400 681T343 705Q308 706 279 683T245 625ZM9 625Q5 591 27 567T85 543Q119 543 148 566T182 623Q186 657 164
681T106 705Q72 706 43 683T9 625Z" />
<glyph unicode="&#xf0;" horiz-adv-x="626" d="M295 -16Q362 -16 417 7T513 71T576 165T599 278Q599 326 589 372T557 463T501 556T420 654T309 760L197 685Q249 648 289 611T362 533T420 446T465 345L506 344Q461 409 412 441T301 473Q250 473 205 454T126 399T73
317T53 214Q53 144 84 93T171 13T295 -16ZM306 119Q263 119 238 147T212 217Q212 244 222 267T251 309T292 338T341 349Q370 349 390 337T423 301T435 249Q435 224 426 201T399 159T358 130T306 119ZM215 507L564 619L547 674L199 562L215 507Z" />
<glyph unicode="&#xf1;" horiz-adv-x="557" d="M258 460H108L29 0H179L258 460ZM368 280L319 0H474L525 296Q531 347 520 386T477 448T389 471Q333 471 293 443T229 371T196 275L227 281Q232 303 245 322T277 354T321 364Q344 362 355 351T368 321T368 280ZM163
598L226 535Q232 549 244 566T282 585Q305 586 324 574T363 548T408 533Q438 532 465 545T514 577T549 616L488 692Q473 672 455 657T415 640Q390 639 373 651T337 677T291 691Q260 692 235 678T192 643T163 598Z" />
<glyph unicode="&#xf2;" horiz-adv-x="572" d="M42 231Q32 162 58 108T137 22T262 -10Q336 -10 398 21T503 106T555 230Q565 299 539 353T460 439T334 471Q262 471 199 440T95 355T42 231ZM195 230Q200 262 218 288T264 331T322 346Q352 345 371 329T399 287T402
231Q397 199 379 173T333 131T275 116Q244 116 225 132T198 174T195 230ZM222 690L374 538L460 578L339 741L222 690Z" />
<glyph unicode="&#xf3;" horiz-adv-x="572" d="M42 231Q32 162 58 108T137 22T262 -10Q336 -10 398 21T503 106T555 230Q565 299 539 353T460 439T334 471Q262 471 199 440T95 355T42 231ZM195 230Q200 262 218 288T264 331T322 346Q352 345 371 329T399 287T402
231Q397 199 379 173T333 131T275 116Q244 116 225 132T198 174T195 230ZM533 686L425 740L254 584L336 539L533 686Z" />
<glyph unicode="&#xf4;" horiz-adv-x="572" d="M42 231Q32 162 58 108T137 22T262 -10Q336 -10 398 21T503 106T555 230Q565 299 539 353T460 439T334 471Q262 471 199 440T95 355T42 231ZM195 230Q200 262 218 288T264 331T322 346Q352 345 371 329T399 287T402
231Q397 199 379 173T333 131T275 116Q244 116 225 132T198 174T195 230ZM369 623L443 538L555 607L383 749L172 613L266 539L369 623Z" />
<glyph unicode="&#xf5;" horiz-adv-x="572" d="M42 231Q32 162 58 108T137 22T262 -10Q336 -10 398 21T503 106T555 230Q565 299 539 353T460 439T334 471Q262 471 199 440T95 355T42 231ZM195 230Q200 262 218 288T264 331T322 346Q352 345 371 329T399 287T402
231Q397 199 379 173T333 131T275 116Q244 116 225 132T198 174T195 230ZM170 598L233 535Q239 549 251 566T289 585Q312 586 331 574T371 548T415 533Q445 532 472 545T522 577T556 616L495 692Q480 672 462 657T421 640Q397 639 380 651T344 677T298 691Q274
691 244 678T192 644T170 598Z" />
<glyph unicode="&#xf6;" horiz-adv-x="572" d="M42 231Q32 162 58 108T137 22T262 -10Q336 -10 398 21T503 106T555 230Q565 299 539 353T460 439T334 471Q262 471 199 440T95 355T42 231ZM195 230Q200 262 218 288T264 331T322 346Q352 345 371 329T399 287T402
231Q397 199 379 173T333 131T275 116Q244 116 225 132T198 174T195 230ZM397 625Q393 591 415 567T473 543Q507 543 536 566T570 623Q574 657 552 681T495 705Q460 706 431 683T397 625ZM161 625Q157 591 179 567T237 543Q271 543 300 566T334 623Q338 657 316
681T258 705Q224 706 195 683T161 625Z" />
<glyph unicode="&#xf7;" horiz-adv-x="621" d="M285 554Q282 530 291 509T320 475T365 461Q391 461 413 473T451 507T470 552Q473 576 464 597T435 631T389 645Q364 645 342 633T304 599T285 554ZM207 99Q203 62 225 35T287 7Q314 6 336 18T374 52T392 97Q395
122 386 142T358 176T312 190Q287 191 264 178T226 145T207 99ZM41 260L614 259L637 395H65L41 260Z" />
<glyph unicode="&#xf8;" horiz-adv-x="530" d="M42 231Q32 160 58 106T138 21T262 -10Q335 -10 398 20T502 104T555 230Q566 301 540 355T460 439T334 470Q262 470 199 440T95 357T42 231ZM183 230Q189 263 209 290T260 335T323 352Q356 351 378 334T409 289T414
231Q409 196 389 168T338 125T273 109Q241 110 219 126T187 169T183 230ZM498 506L33 -16L87 -49L553 471L498 506Z" />
<glyph unicode="&#xf9;" horiz-adv-x="557" d="M324 0H474L553 460H404L324 0ZM214 180L264 460H109L58 164Q52 114 63 75T106 13T193 -10Q250 -10 290 17T354 90T387 185L356 180Q350 158 337 138T305 107T261 96Q237 98 227 110T215 140T214 180ZM229 690L381
538L467 578L347 741L229 690Z" />
<glyph unicode="&#xfa;" horiz-adv-x="557" d="M324 0H474L553 460H404L324 0ZM214 180L264 460H109L58 164Q52 114 63 75T106 13T193 -10Q250 -10 290 17T354 90T387 185L356 180Q350 158 337 138T305 107T261 96Q237 98 227 110T215 140T214 180ZM511 686L403
740L233 584L313 539L511 686Z" />
<glyph unicode="&#xfb;" horiz-adv-x="557" d="M324 0H474L553 460H404L324 0ZM214 180L264 460H109L58 164Q52 114 63 75T106 13T193 -10Q250 -10 290 17T354 90T387 185L356 180Q350 158 337 138T305 107T261 96Q237 98 227 110T215 140T214 180ZM362 623L435
538L547 607L375 749L164 613L258 539L362 623Z" />
<glyph unicode="&#xfc;" horiz-adv-x="557" d="M324 0H474L553 460H404L324 0ZM214 180L264 460H109L58 164Q52 114 63 75T106 13T193 -10Q250 -10 290 17T354 90T387 185L356 180Q350 158 337 138T305 107T261 96Q237 98 227 110T215 140T214 180ZM391 622Q386
587 408 564T465 539Q500 539 529 562T563 619Q567 654 545 677T487 702Q452 702 423 679T391 622ZM154 622Q150 587 172 564T229 539Q263 539 292 562T326 619Q330 654 308 677T251 702Q216 702 187 679T154 622Z" />
<glyph unicode="&#xfd;" horiz-adv-x="505" d="M570 460H413L207 93L284 91L204 460H43L165 42L8 -219H162L570 460ZM501 686L393 740L223 584L303 539L501 686Z" />
<glyph unicode="&#xfe;" horiz-adv-x="598" d="M140 -220L310 780H161L-10 -220H140ZM581 230Q589 296 570 350T508 437T404 470Q358 470 319 452T249 400T199 324T173 231Q167 184 173 141T200 63T253 10T332 -10Q393 -10 446 21T536 107T581 230ZM426 231Q421
199 402 172T355 128T295 113Q274 113 258 122T231 149T216 186T215 230Q219 254 231 276T261 314T300 339T343 348Q374 348 394 331T422 288T426 231Z" />
<glyph unicode="&#xff;" horiz-adv-x="505" d="M570 460H413L207 93L284 91L204 460H43L165 42L8 -219H162L570 460ZM362 614Q358 579 380 556T438 532Q472 531 501 554T535 611Q539 646 517 670T460 694Q425 694 396 671T362 614ZM126 614Q122 579 144 556T202
532Q236 531 265 554T298 611Q303 646 281 670T223 694Q188 694 160 671T126 614Z" />
<glyph unicode="&#x2013;" horiz-adv-x="760" d="M69 172H690L713 303H92L69 172Z" />
<glyph unicode="&#x2014;" horiz-adv-x="912" d="M69 172H845L867 303H92L69 172Z" />
<glyph unicode="&#x2018;" horiz-adv-x="321" d="M272 446L368 700H258L113 446H272Z" />
<glyph unicode="&#x2019;" horiz-adv-x="321" d="M191 700L95 446H204L349 700H191Z" />
<glyph unicode="&#x201a;" horiz-adv-x="321" d="M95 80L-1 -174H108L253 80H95Z" />
<glyph unicode="&#x201c;" horiz-adv-x="546" d="M272 446L368 700H258L113 446H272ZM495 446L592 700H482L337 446H495Z" />
<glyph unicode="&#x201d;" horiz-adv-x="546" d="M191 700L95 446H204L349 700H191ZM416 700L319 446H429L574 700H416Z" />
<glyph unicode="&#x201e;" horiz-adv-x="546" d="M90 80L-6 -174H103L248 80H90ZM315 80L218 -174H328L473 80H315Z" />
<glyph unicode="&#x2022;" horiz-adv-x="302" d="M113 444Q110 420 120 399T150 365T196 352Q222 352 244 364T281 398T298 443Q301 468 291 489T262 523T215 536Q189 536 167 524T130 490T113 444Z" />
<glyph unicode="&#x2039;" horiz-adv-x="340" d="M160 257L340 442L256 509L43 260L174 1L274 62L160 257Z" />
<glyph unicode="&#x203a;" horiz-adv-x="340" d="M212 254L33 69L117 2L330 251L198 510L99 448L212 254Z" />
</font>
</defs>
</svg>
